All Audio Video Applications Games Other
Details for this Torrent

Book of Secrets - Aliens, Ghosts and Ancient Mysteries (2022) 10

Type: Video > HD - Movies
Files: 3
Size: 997.02 MiB
Uploaded: 2022-02-01 14:02 GMT
By:
Seeders: 0
Leechers: 0
Info Hash:
C5762A9ED521BECF658138DC05517F79A21EDB88
[img]https://i.ibb.co/rfgrmjG/1.jpg[/img]

The world abounds with Paranormal and Alien encounters that defy reality and cross over into the realm of high strangeness, of which there have been many attempts to explain these mind-bending phenomena but still no one has the answers. With the US government finally admitting that many of the unexplained sightings of UFO craft may very well be alien technology, we are emerging into a new era, that of a "Unified Theory of the Paranormal" that may provide answers for many enigmas of the unknown. It involves the ancient eastern concept of "oneness" recognized by our forefathers, long before the arcane physics of quantum mechanics demonstrated it's reality. Let us explore the Book of Secrets and face who the aliens are, where they come from and why they are here.


https://www.imdb.com/title/tt17511176/

https://www./watch?v=_bOlhz5WEMQ

[url]https://www./user/ConspiracyTorrents/posts/[/url]

[url=https://ibb.co/ssVd5W9][img]https://i.ibb.co/ZcMpH2z/Book-of-Secrets-Aliens-Ghosts-and-Ancient-Mysteries-2022-1080p-WEBRip-x265-An0mal1-mkv-snapshot-00-1.jpg[/img][/url]
[url=https://ibb.co/R7dHnbQ][img]https://i.ibb.co/WsjK95B/Book-of-Secrets-Aliens-Ghosts-and-Ancient-Mysteries-2022-1080p-WEBRip-x265-An0mal1-mkv-snapshot-00-2.jpg[/img][/url]
[url=https://ibb.co/5BMpd0s][img]https://i.ibb.co/LnkjMF9/Book-of-Secrets-Aliens-Ghosts-and-Ancient-Mysteries-2022-1080p-WEBRip-x265-An0mal1-mkv-snapshot-00-2.jpg[/img][/url]
[url=https://ibb.co/v19xJgT][img]https://i.ibb.co/CBL5nNY/Book-of-Secrets-Aliens-Ghosts-and-Ancient-Mysteries-2022-1080p-WEBRip-x265-An0mal1-mkv-snapshot-00-2.jpg[/img][/url]
[url=https://ibb.co/kgHf24t][img]https://i.ibb.co/GvxLQWq/Book-of-Secrets-Aliens-Ghosts-and-Ancient-Mysteries-2022-1080p-WEBRip-x265-An0mal1-mkv-snapshot-00-2.jpg[/img][/url]

[quote]Video 
ID : 1 
Format : HEVC 
Format/Info : High Efficiency Video Coding 
Format profile : Main @Main 
Codec ID : V_MPEGH/ISO/HEVC 
Duration : 1 h 2 min 
Bit rate : 1 992 kb/s 
Width : 1 920 pixels 
Height : 1 080 pixels 
Display aspect ratio : 16:9 
Frame rate mode : Constant 
Frame rate : 23.976 (24000/1001) FPS 
Color space : YUV 
Chroma subsampling : 4:2:0 
Bit depth : 10 bits 
Bits/(Pixel*Frame) : 0.040 
Stream size : 895 MiB (90%) 
Writing library : x265 3.5+1-ce882936d:[Windows][MSVC 1900][64 bit] 10bit 
Encoding settings : cpuid=1111039 / frame-threads=2 / numa-pools=4 / wpp / no-pmode / no-pme / no-psnr / no-ssim / log-level=2 / input-csp=1 / input-res=1920x1080 / interlace=0 / total-frames=0 / level-idc=40 / high-tier=0 / uhd-bd=0 / ref=3 / no-allow-non-conformance / no-repeat-headers / annexb / no-aud / no-hrd / info / hash=0 / no-temporal-layers / open-gop / min-keyint=23 / keyint=250 / gop-lookahead=0 / bframes=4 / b-adapt=2 / b-pyramid / bframe-bias=0 / rc-lookahead=20 / lookahead-slices=6 / scenecut=40 / hist-scenecut=0 / radl=0 / no-splice / no-intra-refresh / ctu=64 / min-cu-size=8 / no-rect / no-amp / max-tu-size=32 / tu-inter-depth=1 / tu-intra-depth=1 / limit-tu=0 / rdoq-level=0 / dynamic-rd=0.00 / no-ssim-rd / signhide / no-tskip / nr-intra=0 / nr-inter=300 / no-constrained-intra / strong-intra-smoothing / max-merge=3 / limit-refs=1 / no-limit-modes / me=1 / subme=2 / merange=57 / temporal-mvp / no-frame-dup / no-hme / weightp / no-weightb / no-analyze-src-pics / deblock=0:0 / sao / no-sao-non-deblock / rd=3 / selective-sao=4 / early-skip / rskip / no-fast-intra / no-tskip-fast / no-cu-lossless / b-intra / no-splitrd-skip / rdpenalty=0 / psy-rd=2.00 / psy-rdoq=0.00 / no-rd-refine / no-lossless / cbqpoffs=0 / crqpoffs=0 / rc=abr / bitrate=2000 / qcomp=0.60 / qpstep=4 / stats-write=0 / stats-read=0 / ipratio=1.40 / pbratio=1.30 / aq-mode=4 / aq-strength=1.30 / cutree / zone-count=0 / no-strict-cbr / qg-size=32 / no-rc-grain / qpmax=69 / qpmin=0 / no-const-vbv / sar=1 / overscan=0 / videoformat=5 / range=0 / colorprim=2 / transfer=2 / colormatrix=1 / chromaloc=0 / display-window=0 / cll=0,0 / min-luma=0 / max-luma=1023 / log2-max-poc-lsb=8 / vui-timing-info / vui-hrd-info / slices=1 / no-opt-qp-pps / no-opt-ref-list-length-pps / no-multi-pass-opt-rps / scenecut-bias=0.05 / hist-threshold=0.03 / no-opt-cu-delta-qp / no-aq-motion / no-hdr10 / no-hdr10-opt / no-dhdr10-opt / no-idr-recovery-sei / analysis-reuse-level=0 / analysis-save-reuse-level=0 / analysis-load-reuse-level=0 / scale-factor=0 / refine-intra=0 / refine-inter=0 / refine-mv=1 / refine-ctu-distortion=0 / no-limit-sao / ctu-info=0 / no-lowpass-dct / refine-analysis-type=0 / copy-pic=1 / max-ausize-factor=1.0 / no-dynamic-refine / no-single-sei / no-hevc-aq / no-svt / no-field / qp-adaptation-range=1.00 / scenecut-aware-qp=0conformance-window-offsets / right=0 / bottom=0 / decoder-max-rate=0 / no-vbv-live-multi-pass 
Default : Yes 
Forced : Yes 
Color range : Limited 
Matrix coefficients : BT.709 

Audio 
ID : 2 
Format : E-AC-3 
Format/Info : Enhanced AC-3 
Commercial name : Dolby Digital Plus 
Codec ID : A_EAC3 
Duration : 1 h 2 min 
Bit rate mode : Constant 
Bit rate : 224 kb/s 
Channel(s) : 2 channels 
Channel layout : L R 
Sampling rate : 48.0 kHz 
Frame rate : 31.250 FPS (1536 SPF) 
Compression mode : Lossy 
Stream size : 101 MiB (10%) 
Title : English 
Language : English 
Service kind : Complete Main 
Default : Yes 
Forced : No 
[/quote]