All Audio Video Applications Games Other
Details for this Torrent

Book of Secrets - Aliens, Ghosts and Ancient Mysteries (2022) 10

Type: Video > HD - Movies
Files: 3
Size: 3.24 GiB
Uploaded: 2022-02-01 14:02 GMT
By:
Seeders: 0
Leechers: 0
Info Hash:
ABC11CBFC7C316FC1426A5230D8B55962B99BFA6
[img]https://i.ibb.co/rfgrmjG/1.jpg[/img]

The world abounds with Paranormal and Alien encounters that defy reality and cross over into the realm of high strangeness, of which there have been many attempts to explain these mind-bending phenomena but still no one has the answers. With the US government finally admitting that many of the unexplained sightings of UFO craft may very well be alien technology, we are emerging into a new era, that of a "Unified Theory of the Paranormal" that may provide answers for many enigmas of the unknown. It involves the ancient eastern concept of "oneness" recognized by our forefathers, long before the arcane physics of quantum mechanics demonstrated it's reality. Let us explore the Book of Secrets and face who the aliens are, where they come from and why they are here.


https://www.imdb.com/title/tt17511176/

https://www./watch?v=_bOlhz5WEMQ

[url]https://www./user/ConspiracyTorrents/posts/[/url]

[url=https://ibb.co/m6K576D][img]https://i.ibb.co/V2GY82j/Book-of-Secrets-Aliens-Ghosts-and-Ancient-Mysteries-2022-1080p-WEB-DL-x264-An0mal1-mkv-snapshot-00-0.jpg[/img][/url]
[url=https://ibb.co/KV2bt0z][img]https://i.ibb.co/YfcP5RT/Book-of-Secrets-Aliens-Ghosts-and-Ancient-Mysteries-2022-1080p-WEB-DL-x264-An0mal1-mkv-snapshot-00-1.jpg[/img][/url]
[url=https://ibb.co/HzBCGxd][img]https://i.ibb.co/XsjDF38/Book-of-Secrets-Aliens-Ghosts-and-Ancient-Mysteries-2022-1080p-WEB-DL-x264-An0mal1-mkv-snapshot-00-1.jpg[/img][/url]
[url=https://ibb.co/QKS98X4][img]https://i.ibb.co/fx6M8Qs/Book-of-Secrets-Aliens-Ghosts-and-Ancient-Mysteries-2022-1080p-WEB-DL-x264-An0mal1-mkv-snapshot-00-1.jpg[/img][/url]
[url=https://ibb.co/QQXqRNS][img]https://i.ibb.co/4tJDGTv/Book-of-Secrets-Aliens-Ghosts-and-Ancient-Mysteries-2022-1080p-WEB-DL-x264-An0mal1-mkv-snapshot-00-1.jpg[/img][/url]

[quote]Video 
ID : 1 
Format : AVC 
Format/Info : Advanced Video Codec 
Format profile :  
Format settings : CABAC / 1 Ref Frames 
Format settings, CABAC : Yes 
Format settings, Reference frames : 1 frame 
Codec ID : V_MPEG4/ISO/AVC 
Duration : 1 h 2 min 
Bit rate mode : Variable 
Bit rate : 7 016 kb/s 
Maximum bit rate : 6 000 kb/s 
Width : 1 920 pixels 
Height : 1 080 pixels 
Display aspect ratio : 16:9 
Frame rate mode : Constant 
Frame rate : 23.976 (24000/1001) FPS 
Color space : YUV 
Chroma subsampling : 4:2:0 
Bit depth : 8 bits 
Scan type : Progressive 
Bits/(Pixel*Frame) : 0.141 
Stream size : 3.08 GiB (95%) 
Default : Yes 
Forced : No 

Audio 
ID : 2 
Format : E-AC-3 
Format/Info : Enhanced AC-3 
Commercial name : Dolby Digital Plus 
Codec ID : A_EAC3 
Duration : 1 h 2 min 
Bit rate mode : Constant 
Bit rate : 224 kb/s 
Channel(s) : 2 channels 
Channel layout : L R 
Sampling rate : 48.0 kHz 
Frame rate : 31.250 FPS (1536 SPF) 
Bit depth : 32 bits 
Compression mode : Lossy 
Stream size : 101 MiB (3%) 
Title : English 
Language : English 
Service kind : Complete Main 
Default : Yes 
Forced : No 
[/quote]